Rapidshare Megaupload Fileserse Hotfile Forums  

Go Back   Rapidshare Megaupload Fileserse Hotfile Forums > Download > Movies


Reply
 
LinkBack Thread Tools Display Modes
  #1 (permalink)  
Old 03-31-2013, 06:10 AM
Senior Member
 
Join Date: Mar 2011
Posts: 4,338
Exclamation G.I Joe Retaliation (2013) TS XviD-SKA

G.I Joe Retaliation (2013) TS XviD-SKA Rapidshare Megaupload Filefactory Megashare Netload Depositfiles Download G.I Joe Retaliation (2013) TS XviD-SKA High Quality Direct Download Full Mirrors with Max Max Up to 100Mbps.

Download Provider Quality
Arrow Bullet Direct Download : G.I Joe Retaliation (2013) TS XviD-SKADAQuality Level
Arrow Bullet G.I Joe Retaliation (2013) TS XviD-SKA : Rapidshare DownloadLDQuality Level

=
G.I Joe Retaliation (2013) TS XviD-SKA
File Size: 701 MiB

=



Quote:

General
Complete name : ska-gijoeret-xvid.avi
Format : AVI
Format/Info : Audio Video Interleave
File size : 701 MiB
Duration : 1h 41mn
Overall bit rate mode : Variable
Overall bit rate : 969 Kbps
Writing application : VirtualDubMod 1.5.10.2 (build 2540/release)
Writing library : VirtualDubMod build 2540/release

Video
ID : 0
Format : MPEG-4 Visual
Format profile : Advanced Simple@L5
Format settings, BVOP : 2
Format settings, QPel : No
Format settings, GMC : No warppoints
Format settings, Matrix : Default (MPEG)
Muxing mode : Packed bitstream
Codec ID : XVID
Codec ID/Hint : XviD
Duration : 1h 41mn
Bit rate : 826 Kbps
Width : 640 pixels
Height : 272 pixels
Display aspect ratio : 2.35:1
Frame rate : 25.000 fps
Color space : YUV
Chroma subsampling : 4:2:0
Bit depth : 8 bits
Scan type : Progressive
Compression mode : Lossy
Bits/(Pixel*Frame) : 0.190
Stream size : 598 MiB (85%)
Writing library : XviD 64

Audio
ID : 1
Format : MPEG Audio
Format version : Version 1
Format profile : Layer 3
Mode : Joint stereo
Mode extension : MS Stereo
Codec ID : 55
Codec ID/Hint : MP3
Duration : 1h 41mn
Bit rate mode : Variable
Bit rate : 129 Kbps
Channel(s) : 2 channels
Sampling rate : 48.0 KHz
Compression mode : Lossy
Stream size : 93.5 MiB (13%)
Alignment : Aligned on interleaves
Interleave, duration : 24 ms (0.60 video frame)
Interleave, preload duration : 374 ms

Code:
http://www.imdb.com/title/tt1583421/







DOWNLOAD:
Code:
http://www.netload.in/dateibeVBKPlxsY/Gijoeret.XviD.part1.rar.htm
http://www.netload.in/dateiNfV0MVGOoU/Gijoeret.XviD.part2.rar.htm
http://www.netload.in/dateioYcIxI0FV0/Gijoeret.XviD.part3.rar.htm

http://rapidgator.net/file/8fe80a0375fbb0a0441feb3c04645d02/Gijoeret.XviD.part1.rar.html
http://rapidgator.net/file/e272af33af9a27b0da83be8015f3fb9d/Gijoeret.XviD.part2.rar.html
http://rapidgator.net/file/6b38cd8386c7356d254884b758b67c62/Gijoeret.XviD.part3.rar.html

http://uploaded.net/file/l2h99g14/Gijoeret.XviD.part1.rar
http://uploaded.net/file/ksts6qwx/Gijoeret.XviD.part2.rar
http://uploaded.net/file/u5natrde/Gijoeret.XviD.part3.rar

http://lumfile.com/elg3hbjmlyrz/Gijoeret.XviD.part1.rar.html
http://lumfile.com/lv2edpulusje/Gijoeret.XviD.part2.rar.html
http://lumfile.com/etat9l0nmz6r/Gijoeret.XviD.part3.rar.html
DOWNLOAD SINGL LINKS:
Code:
http://www.netload.in/dateiVE8iAdl1JJ/Gijoeret.XviD.SingL.rar.htm
http://rapidgator.net/file/a0b5083444b362928ebd18a2fc24810c/Gijoeret.XviD.SingL.rar.html
http://uploaded.net/file/o1xnslas/Gijoeret.XviD.SingL.rar
http://lumfile.com/i7pndji876oc/Gijoeret.XviD.SingL.rar.html

G.I Joe Retaliation (2013) TS XviD-SKA is available on a new fast direct download service with over 2,210,000 Files to choose from.Download anything with more then 1000+ Kb/s downloading speed.Signup process takes just 10 sec to go.Signup today and enjoy the speed !

Reply With Quote
Reply

Bookmarks

Thread Tools
Display Modes

Posting Rules
You may not post new threads
You may not post replies
You may not post attachments
You may not edit your posts

BB code is On
Smilies are On
[IMG] code is On
HTML code is Off
Trackbacks are On
Pingbacks are On
Refbacks are On



Similar Threads
Thread Thread Starter Forum Replies Last Post
G I Joe Retaliation 2013 CAM READNFO XViD-FANTA newdayluck Movies 0 03-30-2013 10:54 PM
G.I.Joe Retaliation 2013 CAM READNFO XViD-FANTA dulesavic Movies 0 03-30-2013 09:51 PM
G.I. Joe: Retaliation (2012) DVDrip XViD CevinS Movies 0 03-06-2013 02:59 PM
G.I. Joe: Retaliation (2012) DVDrip XViD emperors Movies 0 01-31-2013 04:44 PM
G.I. Joe: Retaliation (2012) DVDrip XViD mrthai Movies 0 05-24-2012 05:08 PM

Free Full Downloads | Rapidshare Forums | ReleaseHour | Rapidshare Download

All times are GMT. The time now is 02:09 AM.


Powered by vBulletin® Version 3.8.2
Copyright ©2000 - 2014, Jelsoft Enterprises Ltd.
Search Engine Friendly URLs by vBSEO 3.1.0 ©2007, Crawlability, Inc.