Rapidshare Megaupload Fileserse Hotfile Forums  

Go Back   Rapidshare Megaupload Fileserse Hotfile Forums > Download > Music


Reply
 
LinkBack Thread Tools Display Modes
  #1 (permalink)  
Old 05-01-2011, 11:32 AM
Senior Member
 
Join Date: Mar 2011
Posts: 22,185
Cool Sharpays Fabulous Adventure [2011] DVDRip XviD-SPRiNTER

Sharpays Fabulous Adventure [2011] DVDRip XviD-SPRiNTER Rapidshare Megaupload Filefactory Megashare Netload Depositfiles Download Sharpays Fabulous Adventure [2011] DVDRip XviD-SPRiNTER High Quality Direct Download Full Mirrors with Max Max Up to 100Mbps.

Download Provider Quality
Arrow Bullet Direct Download : Sharpays Fabulous Adventure [2011] DVDRip XviD-SPRiNTERDAQuality Level
Arrow Bullet Sharpays Fabulous Adventure [2011] DVDRip XviD-SPRiNTER : Rapidshare DownloadLDQuality Level

Sharpays Fabulous Adventure [2011] DVDRip XviD-SPRiNTER

Single Links | No Extraction | No password | My Upload

File Info :
--------


Quote:
Sharpays.Fabulous.Adventure.2011.DVDRip.XviD-SPRiNTER

Subtitles: English | France | Espanol
Date: 2011.04
Genre: Comedy | Drama | Family | Musical | Romance

Format: AVI
Format/Info: Audio Video Interleave
File size: 701 MiB
Duration: 1h 29mn
Overall bit rate: 1 095 Kbps
Writing application: VirtualDubMod 1.5.10.2 (build 2540/release)
Writing library: VirtualDubMod build 2540/release

Video
ID: 0
Format: MPEG-4 Visual
Format profile: Advanced Simple@L5
Format settings, BVOP: 2
Format settings, QPel: No
Format settings, GMC: No warppoints
Format settings, Matrix: Default (H.263)
Codec ID: XVID
Codec ID/Hint: XviD
Duration: 1h 29mn
Bit rate: 953 Kbps
Width: 576 pixels
Height: 320 pixels
Display aspect ratio: 16:9
Frame rate: 23.976 fps
Color space: YUV
Chroma subsampling: 4:2:0
Bit depth: 8 bits
Scan type: Progressive
Compression mode: Lossy
Bits/(Pixel*Frame): 0.216
Stream size: 611 MiB (87%)
Writing library: XviD 1.1.2 (UTC 2006-11-01)

Audio
ID: 1
Format: MPEG Audio
Format version: Version 1
Format profile: Layer 3
Codec ID: 55
Codec ID/Hint: MP3
Duration: 1h 29mn
Bit rate mode: Variable
Bit rate: 129 Kbps
Minimum bit rate: 128 Kbps
Channel(s): 2 channels
Sampling rate: 48.0 KHz
Compression mode: Lossy
Stream size: 82.6 MiB (12%)
Alignment: Aligned on interleaves
Interleave, duration: 24 ms (0.58 video frame)
Interleave, preload duration: 142 ms
Writing library: LAME3.95
Encoding settings: -m s -V 6 -q 3 -lowpass 16 --vbr-old -b 128


Sharpay Evans travels to New York where she is pursuing a Broadway career but
it's her dog who lands an acting gig first.

Screens :



DOWNLOAD FILESONIC
Code:
http://www.filesonic.com/file/877336761/Sharpays Fabulous Adventure [2011].avi
Thank you for downloading and buy account premium movies!
Wishing you moments of fun and pleasure!
Please welcome the next view of the Hollywood movie

Sharpays Fabulous Adventure [2011] DVDRip XviD-SPRiNTER is available on a new fast direct download service with over 2,210,000 Files to choose from.Download anything with more then 1000+ Kb/s downloading speed.Signup process takes just 10 sec to go.Signup today and enjoy the speed !

Reply With Quote
Reply

Bookmarks

Thread Tools
Display Modes

Posting Rules
You may not post new threads
You may not post replies
You may not post attachments
You may not edit your posts

BB code is On
Smilies are On
[IMG] code is On
HTML code is Off
Trackbacks are On
Pingbacks are On
Refbacks are On



Similar Threads
Thread Thread Starter Forum Replies Last Post
'Sharpays Fabulous Adventure [2011] DVDRip XviD-SPRiNTER skylove8x Movies 0 04-28-2011 11:44 AM
Sharpays Fabulous Adventure [2011] DVDRip XviD-SPRiNTER skylove8x Movies 0 04-27-2011 06:26 PM
Sharpays Fabulous Adventure [2011] DVDRip XviD-SPRiNTER rongcon1 Music 0 04-27-2011 09:04 AM
Sharpays Fabulous Adventure [2011] DVDRip XviD-SPRiNTER rongcon1 Music 0 04-26-2011 06:32 PM
[Fsc]Sharpays Fabulous Adventure [2011] DVDRip XviD-SPRiNTER rongcon1 Music 0 04-25-2011 02:21 AM

Free Full Downloads | Rapidshare Forums | ReleaseHour | Rapidshare Download

All times are GMT. The time now is 02:44 PM.


Powered by vBulletin® Version 3.8.2
Copyright ©2000 - 2014, Jelsoft Enterprises Ltd.
Search Engine Friendly URLs by vBSEO 3.1.0 ©2007, Crawlability, Inc.